Скачать Соник в кино / Sonic the Hedgehog (Джефф Фаулер) [2020, фантастика, фэнтези, боевик, приключения, комедия,, WEB-DL 1080p] iTunes в Тас-икс (Tas-ix)

Ответить на тему
Статистика раздачи
Размер:  5,75 GB   |    Зарегистрирован:  7 месяцев 11 дней   |    Скачан:  10 раз

Полного источника не было: 3 дня

 
     
 
 
 

Ravilya ®

Стаж: 5 лет 6 месяцев

Сообщений: 417

Симпатии: 155

Соник в кино / Sonic the Hedgehog
Год выпуска: 2020
Страна: США, Япония, Канада
Жанр: фантастика, фэнтези, боевик, приключения, комедия,
Продолжительность: 01:39:06
Перевод: Дублированный [iTunes]
Cубтитры: Russian (Forced, Full), Ukrainian (Forced, Full), English
Режиссер: Джефф Фаулер
В ролях: Джеймс Марсден, Бен Шварц, Наташа Ротуэлл, Тика Самптер, Нил МакДонаф, Адам Палли, Джим Керри, Майкл Хоган, Ли Мадждуб, Том Батлер, Фрэнк Ч. Тёрнер
Описание: Отвязный ярко-синий ёжик Соник вместе с новообретённым лучшим другом-человеком по имени Том знакомится со сложностями жизни на Земле и противостоит злодейскому доктору Роботнику, который хочет пленить Соника и использовать его безграничные суперсилы для завоевания мирового господства.
Качество видео: WEB-DL 1080p
Формат видео: MKV
Видео: 7165 Kb/s, 1920x800
Аудио №1: Russian: AC3, 384 Kb/s (6 ch)
Аудио №2: Ukrainian: AAC, 192 Kb/s (2 ch)
Аудио №3: English: E-AC3, 640 Kb/s (6 ch)

MI

General
Unique ID : 168840829803048387997251055424659783142 (0x7F058F9D631F0E7BEE075FD9BA1BFDE6)
Complete name :Sonik.v.kino.2020.WEB-DL.1080p.mkv
Format : Matroska
Format version : Version 4
File size : 5.75 GiB
Duration : 1 h 38 min
Overall bit rate : 8 318 kb/s
Encoded date : UTC 2020-04-13 18:16:17
Writing application : mkvmerge v43.0.0 ('The Quartermaster') 64-bit
Writing library : libebml v1.3.10 + libmatroska v1.5.2
Video
ID : 1
Format : AVC
Format/Info : Advanced Video Codec
Format profile : High@L4
Format settings : CABAC / 4 Ref Frames
Format settings, CABAC : Yes
Format settings, Reference : 4 frames
Codec ID : V_MPEG4/ISO/AVC
Duration : 1 h 38 min
Bit rate mode : Constant
Bit rate : 7 165 kb/s
Nominal bit rate : 10 000 kb/s
Width : 1 920 pixels
Height : 800 pixels
Display aspect ratio : 2.40:1
Frame rate mode : Constant
Frame rate : 23.976 (24000/1001) FPS
Color space : YUV
Chroma subsampling : 4:2:0
Bit depth : 8 bits
Scan type : Progressive
Bits/(Pixel*Frame) : 0.195
Stream size : 4.95 GiB (86%)
Default : Yes
Forced : No
Color range : Limited
Color primaries : BT.709
Transfer characteristics : BT.709
Matrix coefficients : BT.709
Audio #1
ID : 2
Format : AC-3
Format/Info : Audio Coding 3
Commercial name : Dolby Digital
Codec ID : A_AC3
Duration : 1 h 38 min
Bit rate mode : Constant
Bit rate : 384 kb/s
Channel(s) : 6 channels
Channel layout : L R C LFE Ls Rs
Sampling rate : 48.0 kHz
Frame rate : 31.250 FPS (1536 SPF)
Compression mode : Lossy
Stream size : 272 MiB (5%)
Title : iTunes
Language : Russian
Service kind : Complete Main
Default : Yes
Forced : Yes
Audio #2
ID : 3
Format : AAC LC
Format/Info : Advanced Audio Codec Low Complexity
Codec ID : A_AAC-2
Duration : 1 h 38 min
Bit rate : 126 kb/s
Channel(s) : 2 channels
Channel layout : L R
Sampling rate : 44.1 kHz
Frame rate : 43.066 FPS (1024 SPF)
Compression mode : Lossy
Stream size : 88.8 MiB (2%)
Title : iTunes
Language : Ukrainian
Default : No
Forced : No
Audio #3
ID : 4
Format : E-AC-3
Format/Info : Enhanced AC-3
Commercial name : Dolby Digital Plus
Codec ID : A_EAC3
Duration : 1 h 38 min
Bit rate mode : Constant
Bit rate : 640 kb/s
Channel(s) : 6 channels
Channel layout : L R C LFE Ls Rs
Sampling rate : 48.0 kHz
Frame rate : 31.250 FPS (1536 SPF)
Compression mode : Lossy
Stream size : 453 MiB (8%)
Language : English
Service kind : Complete Main
Default : No
Forced : No
Text #1
ID : 5
Format : UTF-8
Codec ID : S_TEXT/UTF8
Codec ID/Info : UTF-8 Plain Text
Duration : 1 h 35 min
Bit rate : 1 b/s
Count of elements : 25
Stream size : 992 Bytes (0%)
Title : Forced
Language : Russian
Default : Yes
Forced : Yes
Text #2
ID : 6
Format : UTF-8
Codec ID : S_TEXT/UTF8
Codec ID/Info : UTF-8 Plain Text
Duration : 1 h 37 min
Bit rate : 93 b/s
Count of elements : 1294
Stream size : 66.8 KiB (0%)
Language : Russian
Default : No
Forced : No
Text #3
ID : 7
Format : UTF-8
Codec ID : S_TEXT/UTF8
Codec ID/Info : UTF-8 Plain Text
Duration : 1 h 35 min
Bit rate : 1 b/s
Count of elements : 29
Stream size : 1.13 KiB (0%)
Title : Forced
Language : Ukrainian
Default : No
Forced : No
Text #4
ID : 8
Format : UTF-8
Codec ID : S_TEXT/UTF8
Codec ID/Info : UTF-8 Plain Text
Duration : 1 h 37 min
Bit rate : 90 b/s
Count of elements : 1313
Stream size : 64.7 KiB (0%)
Language : Ukrainian
Default : No
Forced : No
Text #5
ID : 9
Format : UTF-8
Codec ID : S_TEXT/UTF8
Codec ID/Info : UTF-8 Plain Text
Duration : 1 h 31 min
Bit rate : 66 b/s
Count of elements : 1415
Stream size : 44.3 KiB (0%)
Language : English
Default : No
Forced : No
Text #6
ID : 10
Format : UTF-8
Codec ID : S_TEXT/UTF8
Codec ID/Info : UTF-8 Plain Text
Duration : 1 h 32 min
Bit rate : 73 b/s
Count of elements : 1661
Stream size : 49.6 KiB (0%)
Title : SDH
Language : English
Default : No
Forced : No
Menu
00:00:00.000 : en:Studio Logo
00:00:51.000 : en:Scene 2
00:01:30.000 : en:Scene 3
00:03:43.000 : en:Title Sequence
00:03:51.000 : en:Scene 5
00:09:34.000 : en:Scene 6
00:17:02.000 : en:Scene 7
00:22:20.000 : en:Scene 8
00:31:35.000 : en:Scene 9
00:35:09.000 : en:Scene 10
00:38:29.000 : en:Scene 11
00:48:40.000 : en:Scene 12
00:59:41.000 : en:Scene 13
01:04:37.000 : en:Scene 14
01:12:43.000 : en:Scene 15
01:20:15.000 : en:Scene 16
01:25:41.000 : en:Scene 17
01:29:03.000 : en:Scene 18
01:30:27.000 : en:End Credits
01:32:05.000 : en:Scene 20
01:32:45.000 : en:End Credits
[202111.tas-ix.net].t121651.torrent
 ЗОЛОТАЯ РАЗДАЧА! СКАЧАННОЕ НЕ ЗАСЧИТЫВАЕТСЯ! 
Торрент: Зарегистрирован [ 2020-04-14 10:09 ] · 68BF255DD2050F686F3139518953E5AB90BC65BD

Скачать .torrent

Скачать

15 KB

Статус: проверено
Скачан: 10 раз
Размер: 5,75 GB
 

Создавать темы 14-Апр-2020 10:09

[Профиль]  [ЛС] 
Показать сообщения:    
Ответить на тему

Текущее время: 25-Ноя 21:29

Часовой пояс: UTC + 5



Вы не можете начинать темы
Вы не можете отвечать на сообщения
Вы не можете редактировать свои сообщения
Вы не можете удалять свои сообщения
Вы не можете голосовать в опросах
Вы не можете прикреплять файлы к сообщениям
Вы не можете скачивать файлы
3.237.66.86