Скачать Звездный путь: Пикар / Star Trek: Picard / Сезон: 1 / Серии: 1-10 из 10 (Ханель М. Кулпеппер, Джонатан Фрейкс, Акива Голдсман) [2020, фантастика, боевик, драма, приключения, WEB-DLRip 1080p] (MVO : LostFilm) в Тас-икс (Tas-ix)

Ответить на тему
Статистика раздачи
Размер:  26,28 GB   |    Зарегистрирован:  7 месяцев 24 дня   |    Скачан:  0 раз

Полного источника не было: 7 месяцев

 
     
 
 
 

Ravilya ®

Стаж: 5 лет 6 месяцев

Сообщений: 417

Симпатии: 155

Звездный путь: Пикар / Star Trek: Picard
Год выпуска: 2020
Страна: США
Жанр: фантастика, боевик, драма, приключения
Продолжительность: 00:46:00
Перевод: Профессиональный (многоголосый закадровый) LostFilm
Cубтитры: нет
Режиссер: Ханель М. Кулпеппер, Джонатан Фрейкс, Акива Голдсман
В ролях: Патрик Стюарт, Элисон Пилл, Иза Брионес, Мишель Херд, Сантьяго Кабрера, Гарри Тредэвэй, Эван Эвагора, Пейтон Лист, Тэмлин Томита, Джери Райан
Описание: Спустя 15 лет жизнь некогда бороздившего космические просторы Жана-Люка Пикара, кажется, стала совсем спокойной. Однако вскоре ему придётся покинуть насиженное место и отправиться навстречу очередным приключениям.

Качество видео: WEB-DLRip 1080p
Формат видео: MKV (x264)
Видео: 7569 Kb/s, 1920x1080
Аудио #1: AC3, 384 Kb/s (2 ch) Russian
Аудио #2: AC3, 384 Kb/s (2 ch) English

MediaInfo

General
Unique ID : 249466410714322270861637657559099471900 (0xBBAD7BA940DE4841B1C30FC8C48B781C)
Complete name : Star Trek Picard_S1\Star.Trek.Picard.S01E01.1080p.rus.LostFilm.TV.mkv
Format : Matroska
Format version : Version 4
File size : 2.45 GiB
Duration : 46 min 16 s
Overall bit rate : 7 569 kb/s
Encoded date : UTC 2020-01-25 17:47:35
Writing application : mkvmerge v7.7.0 ('Six Voices') 64bit built on Feb 28 2015 23:39:33
Writing library : libebml v1.3.1 + libmatroska v1.4.2
Video
ID : 1
Format : AVC
Format/Info : Advanced Video Codec
Format profile : High@L4.1
Format settings : CABAC / 4 Ref Frames
Format settings, CABAC : Yes
Format settings, Reference : 4 frames
Codec ID : V_MPEG4/ISO/AVC
Duration : 46 min 16 s
Bit rate : 6 800 kb/s
Width : 1 920 pixels
Height : 1 080 pixels
Display aspect ratio : 16:9
Frame rate mode : Constant
Frame rate : 24.000 FPS
Color space : YUV
Chroma subsampling : 4:2:0
Bit depth : 8 bits
Scan type : Progressive
Bits/(Pixel*Frame) : 0.137
Stream size : 2.15 GiB (88%)
Writing library : x264 core 112 r1834 a51816a
Encoding settings : cabac=1 / ref=4 / deblock=1:-3:-2 / analyse=0x3:0x113 / me=hex / subme=7 / psy=1 / psy_rd=1.00:0.00 / mixed_ref=1 / me_range=16 / chroma_me=1 / trellis=1 / 8x8dct=1 / cqm=0 / deadzone=21,11 / fast_pskip=1 / chroma_qp_offset=-2 / threads=6 / sliced_threads=0 / nr=0 / decimate=1 / interlaced=0 / constrained_intra=0 / bframes=5 / b_pyramid=2 / b_adapt=1 / b_bias=0 / direct=1 / weightb=1 / open_gop=0 / weightp=2 / keyint=250 / keyint_min=25 / scenecut=40 / intra_refresh=0 / rc_lookahead=40 / rc=2pass / mbtree=1 / bitrate=6800 / ratetol=1.0 / qcomp=0.60 / qpmin=0 / qpmax=51 / qpstep=4 / cplxblur=20.0 / qblur=0.5 / vbv_maxrate=10000 / vbv_bufsize=256000 / ip_ratio=1.40 / aq=1:1.00 / nal_hrd=none
Default : Yes
Forced : No
Audio #1
ID : 2
Format : AC-3
Format/Info : Audio Coding 3
Commercial name : Dolby Digital
Codec ID : A_AC3
Duration : 46 min 16 s
Bit rate mode : Constant
Bit rate : 384 kb/s
Channel(s) : 2 channels
Channel layout : L R
Sampling rate : 48.0 kHz
Frame rate : 31.250 FPS (1536 SPF)
Compression mode : Lossy
Stream size : 127 MiB (5%)
Service kind : Complete Main
Default : Yes
Forced : No
Audio #2
ID : 3
Format : AC-3
Format/Info : Audio Coding 3
Commercial name : Dolby Digital
Codec ID : A_AC3
Duration : 46 min 16 s
Bit rate mode : Constant
Bit rate : 384 kb/s
Channel(s) : 2 channels
Channel layout : L R
Sampling rate : 48.0 kHz
Frame rate : 31.250 FPS (1536 SPF)
Compression mode : Lossy
Stream size : 127 MiB (5%)
Service kind : Complete Main
Default : No
Forced : No
[202111.tas-ix.net].t121586.torrent
 ЗОЛОТАЯ РАЗДАЧА! СКАЧАННОЕ НЕ ЗАСЧИТЫВАЕТСЯ! 
Торрент: Зарегистрирован [ 2020-03-30 23:25 ] · E3DEDF6C930CA8E27BC559A4CD467DA3FFD436C3

Скачать .torrent

Скачать

133 KB

Статус: проверено
Скачан: 0 раз
Размер: 26,28 GB
 

Создавать темы 30-Мар-2020 23:25

[Профиль]  [ЛС] 

Топик был перенесен из форума Сезон 2019-2020 в форум HD
ruhal

Создавать темы 30-Мар-2020 23:42

 
Показать сообщения:    
Ответить на тему

Текущее время: 24-Ноя 08:09

Часовой пояс: UTC + 5



Вы не можете начинать темы
Вы не можете отвечать на сообщения
Вы не можете редактировать свои сообщения
Вы не можете удалять свои сообщения
Вы не можете голосовать в опросах
Вы не можете прикреплять файлы к сообщениям
Вы не можете скачивать файлы
35.153.39.7