Скачать Мой Маленький Пони: Дружба - это Чудо / My Little Pony: Friendship Is Magic / Сезон: 9 / Серии: 1-13 из 26 (Лорен Фауст, Джейсон Тиссен) [2019, Комедия, Семейный, Фэнтези., WEB-DL 1080p] (AVO : ALEKS KV) (Sub Rus + Original Eng) в Тас-икс (Tas-ix)

Ответить на тему
Статистика раздачи
Размер:  11,81 GB   |    Зарегистрирован:  1 год 3 месяца   |    Скачан:  2 раза

Полного источника не было: 8 месяцев 17 дней

 
     
 
 
 

Ravilya ®

Стаж: 5 лет 6 месяцев

Сообщений: 417

Симпатии: 155

Мой Маленький Пони: Дружба - это Чудо / My Little Pony: Friendship Is Magic
--Год выпуска: 2019
Страна: США, Канада
Жанр: Комедия, Семейный, Фэнтези.
Продолжительность: ~00:23:00-Перевод: Любительский (Одноголосный, закадровый) ALEKS KV
Субтитры: Русские Anon2Anon
Субтитры: Русские TheDoctorTeam
Субтитры: Английские
Оригинальная аудиодорожка: английский-Режиссер: Лорен Фауст, Джейсон Тиссен-Описание: В чудесной стране Эквестрии, в городе Понивилль, живут симпатичные пони. Каждая из них обладает удивительными способностями: умеет летать и управлять погодой, двигать предметы силой мысли, понимать язык животных и птиц или ходить по облакам. Главная героиня мультсериала Искорка — любимая ученица принцессы Селестии. Прибыв в Понивилль, она знакомится с отважной Радугой, элегантной Рарити, трудолюбивой Эпплджек, стеснительной Флаттершай и веселой Пинки Пай. Каждый день Искорка вместе с новыми друзьями решает проблемы жителей города Понивилля. Увлекательные приключения становятся для друзей настоящим уроком добра и взаимопонимания.-Качество видео: WEB-DL 1080p
Формат видео: MKV-Видео: H264 8bit 1920x1080 23.976fps ~5700Kbps
Аудио 1: Dolby AC3 48000Hz -----|5.1|----- 384Kbps [ALEKS KV] (Серии 01-13) RUS
Аудио 2: Dolby AC3 48000Hz --|5.1|--- 384Kbps [Оригинал] (Серии 01-13) ENG-Субтитры 1: Anon2Anon (Серии 01-13) RUS
Субтитры 2: TheDoctor Team (Серии 01-13) RUS
Субтитры 3: Оригинал (Серии 01-13) ENG-

Список серий

01. Начало конца - Часть 1
02. Начало конца - Часть 2
03. Перерождение
04. Великолепная Семёрка
05. Точка невозврата
06. Общий язык
07. Всем якам як
08. Заклятые друзья
09. Сладости и гадости
10. Погоня за урожаем
11. Школьный советник
12. Последнее задание для Меткоискателей
13. Между тьмой и рассветом

MediaInfo

General
Unique ID : 250701412836080769581254639327176730997 (0xBC9B55F7855AC41E905BA46406CAA975)
Complete name : xxxxxxxxxxxxxxx\[M-KV2501] My Little Pony FiM 9x01 [WEB-DL] [1080p].mkv
Format : Matroska
Format version : Version 4 / Version 2
File size : 924 MiB
Duration : 22 min 4 s
Overall bit rate : 5 851 kb/s
Encoded date : UTC 2019-04-09 17:15:22
Writing application : mkvmerge v8.3.0 ('Over the Horizon') 64bit
Writing library : libebml v1.3.1 + libmatroska v1.4.2
Video
ID : 1
Format : AVC
Format/Info : Advanced Video Codec
Format profile : High@L4
Format settings : CABAC / 4 Ref Frames
Format settings, CABAC : Yes
Format settings, ReFrames : 4 frames
Codec ID : V_MPEG4/ISO/AVC
Duration : 22 min 4 s
Bit rate : 5 080 kb/s
Width : 1 920 pixels
Height : 1 080 pixels
Display aspect ratio : 16:9
Frame rate mode : Constant
Frame rate : 23.976 (24000/1001) FPS
Color space : YUV
Chroma subsampling : 4:2:0
Bit depth : 8 bits
Scan type : Progressive
Bits/(Pixel*Frame) : 0.102
Stream size : 802 MiB (87%)
Title : Original
Language : English
Default : Yes
Forced : No
Color range : Limited
Color primaries : BT.709
Transfer characteristics : BT.709
Matrix coefficients : BT.709
Audio #1
ID : 2
Format : AC-3
Format/Info : Audio Coding 3
Codec ID : A_AC3
Duration : 22 min 4 s
Bit rate mode : Constant
Bit rate : 384 kb/s
Channel(s) : 6 channels
Channel positions : Front: L C R, Side: L R, LFE
Sampling rate : 48.0 kHz
Frame rate : 31.250 FPS (1536 SPF)
Bit depth : 16 bits
Compression mode : Lossy
Stream size : 60.7 MiB (7%)
Title : ALEKS KV
Language : Russian
Service kind : Complete Main
Default : Yes
Forced : No
Audio #2
ID : 3
Format : AC-3
Format/Info : Audio Coding 3
Codec ID : A_AC3
Duration : 22 min 4 s
Bit rate mode : Constant
Bit rate : 384 kb/s
Channel(s) : 6 channels
Channel positions : Front: L C R, Side: L R, LFE
Sampling rate : 48.0 kHz
Frame rate : 31.250 FPS (1536 SPF)
Bit depth : 16 bits
Compression mode : Lossy
Stream size : 60.7 MiB (7%)
Title : Original
Language : English
Service kind : Complete Main
Default : No
Forced : No
Text #1
ID : 4
Format : ASS
Codec ID : S_TEXT/ASS
Codec ID/Info : Advanced Sub Station Alpha
Duration : 21 min 27 s
Bit rate : 192 b/s
Count of elements : 363
Compression mode : Lossless
Stream size : 30.2 KiB (0%)
Title : Anon2Anon
Language : Russian
Default : No
Forced : No
Text #2
ID : 5
Format : ASS
Codec ID : S_TEXT/ASS
Codec ID/Info : Advanced Sub Station Alpha
Duration : 21 min 24 s
Bit rate : 213 b/s
Count of elements : 366
Compression mode : Lossless
Stream size : 33.4 KiB (0%)
Title : TheDoctor Team
Language : Russian
Default : No
Forced : No
Text #3
ID : 6
Format : ASS
Codec ID : S_TEXT/ASS
Codec ID/Info : Advanced Sub Station Alpha
Duration : 21 min 27 s
Bit rate : 130 b/s
Count of elements : 362
Compression mode : Lossless
Stream size : 20.5 KiB (0%)
Title : Original
Language : English
Default : No
Forced : No
[202111.tas-ix.net].t121027.torrent
Торрент: Зарегистрирован [ 2019-08-16 09:32 ] · E089D18B2974FE655E2C3FF8675A2F8ACB75E25B

Скачать .torrent

Скачать

62 KB

Статус: проверено
Скачан: 2 раз
Размер: 11,81 GB
 

Создавать темы 16-Авг-2019 09:32

[Профиль]  [ЛС] 
Показать сообщения:    
Ответить на тему

Текущее время: 26-Ноя 14:17

Часовой пояс: UTC + 5



Вы не можете начинать темы
Вы не можете отвечать на сообщения
Вы не можете редактировать свои сообщения
Вы не можете удалять свои сообщения
Вы не можете голосовать в опросах
Вы не можете прикреплять файлы к сообщениям
Вы не можете скачивать файлы
3.219.31.204